#TITLE:Fuck Kurt Cobain;
#SUBTITLE:;
#ARTIST:Swat That Fly!;
#TITLETRANSLIT:;
#SUBTITLETRANSLIT:;
#ARTISTTRANSLIT:;
#CREDIT:;
#BANNER:Cobain Tag.PNG;
#BACKGROUND:Fuck Kurt Cobain.PNG;
#LYRICSPATH:;
#CDTITLE:spinny.png;
#MUSIC:Fuck Kurt Cobain.mp3;
#OFFSET:0.000;
#SAMPLESTART:24.860;
#SAMPLELENGTH:12.000;
#SELECTABLE:YES;
#BPMS:0.000=240.000;
#STOPS:;
#BGCHANGES:;
// cache tags:
#FIRSTBEAT:0.000;
#LASTBEAT:244.000;
#SONGFILENAME:Songs/Music V.I.P ^_^/Fuck Kurt Cobain/fuckcj.sm;
#HASMUSIC:1;
#HASBANNER:1;
#MUSICLENGTH:60.447;
// end cache tags

//---------------dance-single - ----------------
#NOTES:
     dance-single:
     :
     Challenge:
     1:
     0.000,0.000,0.000,0.000,0.000,0.000,0.000,0.000,0.000,0.000:
0000
0000
0000
0000
;

//---------------dance-single - Copied from----------------
#NOTES:
     dance-single:
     Copied from:
     Edit:
     1:
     0.000,0.000,0.000,0.000,0.000,0.000,0.000,0.000,0.000,0.000:
0000
0000
0000
0000
;

//---------------dance-single - ----------------
#NOTES:
     dance-single:
     :
     Easy:
     1:
     0.000,0.000,0.000,0.000,0.000,0.000,0.000,0.000,0.000,0.000:
0000
0000
0000
0000
;

//---------------dance-single - ----------------
#NOTES:
     dance-single:
     :
     Hard:
     1:
     0.593,0.858,0.050,0.132,0.000,240.000,3.000,8.000,0.000,0.000:
1000
0000
0100
0000
0001
0000
0010
0010
,
0010
0000
0010
0000
0001
0000
0100
0100
,
0100
0000
0010
0000
0100
0000
0001
0001
,
0001
0000
0010
0000
1000
0001
1000
0001
,
0100
0000
0010
0000
0100
0010
0100
0000
,
1000
0000
0001
0000
1000
0001
1000
0000
,
0010
0000
1000
0010
1000
0000
0001
0010
,
0001
0000
0100
1000
0100
0000
0010
0001
,
0010
1000
0001
1000
0001
0100
0010
0100
,
0010
1000
0100
0010
0001
1000
0100
0010
,
0001
0001
0010
0100
1000
0001
0010
0100
,
1000
0001
1000
0001
0000
1000
0001
1000
,
0000
0000
0010
0000
1000
0001
1000
0000
,
0010
0000
0010
0000
1000
0001
1000
0000
,
0010
0000
0010
0010
1000
0001
1000
0001
,
1000
0001
0010
0000
0010
0000
0001
0000
,
0001
0100
0010
0100
0010
1000
0100
0010
,
0001
1000
0001
0010
0100
1000
0001
0010
,
0001
0010
0100
1000
0100
0010
0001
0010
,
0001
0000
0010
0001
0010
0000
0010
0100
,
2002
0000
0000
0000
,
0000
0000
0000
3003
,
1000
0000
0000
1000
0000
0000
1000
0000
,
0001
0000
0000
0001
0000
0000
0001
0000
,
1000
0000
0000
1000
0000
0000
1000
0000
,
0001
0000
0000
0001
0000
0000
0001
0000
,
1000
0000
0000
1000
0000
0000
1000
0000
,
1000
0000
1000
0000
1000
0010
1000
0010
,
0001
0000
0001
0000
0001
0100
0001
0100
,
0001
0000
0001
0000
0001
0010
0001
0010
,
0100
0000
0100
0000
0100
0010
0100
0010
,
1000
0100
0010
0001
1000
0010
1000
0001
,
0100
0001
0010
0100
1000
0010
0001
1000
,
0002
0000
0000
0000
,
0000
0000
0000
0000
,
2003
0000
0000
0000
,
0000
0000
0000
0000
,
3000
0000
0000
0000
,
2002
0000
0000
0000
,
0000
0000
0000
0000
,
0000
0000
0000
3003
,
1000
0000
0000
0000
1000
0001
0000
0000
,
1000
0000
1000
0001
1000
0000
0000
0000
,
1000
0000
0000
0000
1000
0010
0000
0000
,
0010
0000
0010
0001
0010
0000
0000
0000
,
0100
0000
0000
0000
0010
0001
0000
0000
,
0100
0000
0100
0010
0100
0000
0000
0000
,
0100
0000
0000
0000
0100
0100
0000
0000
,
0010
0000
0001
1000
0001
0000
0000
0000
,
0010
0000
0000
0000
0001
0001
0000
0000
,
0100
0000
0100
0001
0100
0000
0000
0000
,
0001
0000
0000
0000
0100
0010
0000
0000
,
0001
0000
0010
0100
0100
0000
0000
0000
,
0001
0000
0000
0000
0100
0001
0000
0000
,
0001
0000
0100
1000
0010
0000
0000
0000
,
0100
0000
0000
0000
0100
0100
0000
0000
,
0100
0000
0100
0100
0220
0000
0000
0000
,
0000
0000
0000
0000
,
0000
0000
0000
0000
,
0000
0000
0000
0000
,
0000
0000
0000
0000
,
0330
0000
0000
0000
;
